Cosmosquad(USA) – CD+DVD

Страница 1 из 2 1, 2  Следующий

Перейти вниз

Cosmosquad(USA) – CD+DVD

Сообщение автор kelia99 в Чт Авг 27, 2009 1:55 am

Cosmosquad(USA) – Acid Test - 2007



Origin: USA
Genre: Progressive rock,Progressive metal,Fusion,instrumental
Quality: (FLAC,cue,Log, cover,3% Recovery record)
Size: 367 mb
Source: My CD collection

Cosmosquad biography
COSMOSQUAD is an instrumental progressive rock/metal band from United States that formed in 1997 by Jeff Kollman (guitars), Shane Gaalaas (drums) and Barry Sparks (bass) after some serious jams at a rehearsal studio in Phoenix, Arizona.

Soon after, the band moved to a studio in L.A. to start recording what would become their first release. The self-titled album was released on Kollman's own Marmaduke Records in 1997. In 1998 the band regrouped to record Kollman's solo album "Shedding Skin". The album was considered kind of a continuation of COSMOSQUAD's self titled debut that the band often plays songs of "Shedding Skin" on their live sets.

In 2000 as the band was beginning to get ready to tour, Barry leaves the band due to commitments with other bands during the year. Christopher Maloney which Jeff and Shane already knew would play with them during the year through out L.A.

Just after the tour, in 2001 Christopher handed the bass chair back to Barry as the band was getting ready to work on their next record. For the new album the band invited different guests to expand and develop their sound. "Squadrophenia" was released and expanded the bands fan base not only in the U.S. and Japan, but in Europe too.

In 2002 the band released their "Live at the Baked Potato" a compilation of recordings of the band playing throughout L.A. Once again Barry found himself committed to other artists so Christopher took over bass duties once again for their tour.

In 2007 Barry committed himself entirely to his solo work, eventually leading to his permanent departure from the band yet the remainder members of the band continued to write material as a duo. Jeff would have to take bass duties for their next although they brought their three unofficial" bass players Christopher, Paul and Kevin to record in several songs.

In 2007 the band released "Acid Test". Eventually the band added Christopher as bass player only this time he would be Barry's permanent replacement. After several live performances the band released their first live DVD entitled "Lights, Camera, Squad!"

Songs / Tracks Listing :

1. NuMena (7:03)
2. The Spy Who 8 Her (5:53)
3. Lubitorium (6:52)
4. Bedbucket (5:55)
5. Goathead (5:06)
6. Hindenberg (5:37)
7. The Long Walk Goodbye (4:52)
8. Swink (3:58)
9. Grossalicious (7:04)

Total Time 52:20

Line-up / Musicians:

- Jeff Kollman / Guitar
- Shane Gaalaas / Drums

Session:

- Paul Shihadeh / Bass
- Kevin Chown / Bass
- Christopher Maloney / Bass

Releases information
Mascot Records

Log EAC:
Exact Audio Copy V0.99 prebeta 5 from 4. May 2009

Отчёт EAC об извлечении, выполненном 8. августа 2010, 20:35

Cosmosquad / Acid Test

Дисковод: HL-DT-STDVDRAM GSA-H66N Adapter: 3 ID: 0

Режим чтения : Достоверность
Использование точного потока : Да
Отключение кэша аудио : Да
Использование указателей C2 : Нет

Коррекция смещения при чтении : 667
Способность читать области Lead-in и Lead-out : Нет
Заполнение пропущенных сэмплов тишиной : Да
Удаление блоков с тишиной в начале и конце : Нет
При вычислениях CRC использовались нулевые сэмплы : Да
Интерфейс : Встроенный Win32-интерфейс для Win NT/2000

Выходной формат : Внутренние WAV-операции
Формат сэмплов : 44.100 Гц; 16 бит; стерео


TOC извлечённого CD

Трек | Старт | Длительность | Начальный сектор | Конечный сектор
---------------------------------------------------------------------
1 | 0:00.00 | 7:03.31 | 0 | 31755
2 | 7:03.31 | 5:53.13 | 31756 | 58243
3 | 12:56.44 | 6:52.57 | 58244 | 89200
4 | 19:49.26 | 5:55.69 | 89201 | 115894
5 | 25:45.20 | 5:06.25 | 115895 | 138869
6 | 30:51.45 | 5:37.12 | 138870 | 164156
7 | 36:28.57 | 4:52.26 | 164157 | 186082
8 | 41:21.08 | 3:58.22 | 186083 | 203954
9 | 45:19.30 | 7:04.16 | 203955 | 235770


Характеристики диапазона извлечения и сообщения об ошибках

Выбранный диапазон

Имя файла E:\cosqud-07\Cosmosquad - Acid Test (2007)\Cosmosquad - Acid Test.wav

Пиковый уровень 100.0 %
Качество диапазона 99.9 %
CRC копии C908287F
Копирование... OK

Ошибок не произошло


AccurateRip: сводка

Трек 1 точное извлечение (доверие 3) [331861A6]
Трек 2 точное извлечение (доверие 3) [1EAF7BDC]
Трек 3 точное извлечение (доверие 3) [6117AAF8]
Трек 4 точное извлечение (доверие 3) [0A189EDB]
Трек 5 точное извлечение (доверие 3) [B5249072]
Трек 6 точное извлечение (доверие 3) [3A56688C]
Трек 7 точное извлечение (доверие 3) [C0B6BD15]
Трек 8 точное извлечение (доверие 3) [19B2CB1F]
Трек 9 точное извлечение (доверие 3) [7179EDBE]

Все треки извлечены точно

Конец отчёта




Последний раз редактировалось: kelia99 (Пт Сен 03, 2010 5:11 pm), всего редактировалось 4 раз(а) (Обоснование : обновление ссылок)
avatar
kelia99

Сообщения : 1065
Дата регистрации : 2009-05-06
Возраст : 57
Откуда : Украина,Запорожская обл.

http://in-rock-lossless.moole.ru/

Вернуться к началу Перейти вниз

Re: Cosmosquad(USA) – CD+DVD

Сообщение автор Willy в Чт Авг 27, 2009 4:47 pm

Спасибо!
avatar
Willy

Сообщения : 542
Дата регистрации : 2009-05-06
Возраст : 29
Откуда : Молдова, Кишинёв

Вернуться к началу Перейти вниз

Re: Cosmosquad(USA) – CD+DVD

Сообщение автор ????? в Вс Авг 30, 2009 3:26 am

Спасибо! Поглядим, что они в 2007 году сделали
avatar
?????
Гость


Вернуться к началу Перейти вниз

Re: Cosmosquad(USA) – CD+DVD

Сообщение автор kelia99 в Вс Сен 20, 2009 11:37 pm

COSMOSQUAD - Lights...Camera...SQUAD!-2008(DVD5)



DVD/Video, released in 2008

For the first time ever, Cosmosquad fans are finally treated to a live concert movie of one of the hottest instrumental bands performing today. Recorded on their home turf in Hollywood, California, the band plays a bone crushing set for the students of the world-renowned Musicians Institute. Filmed in High Definition, Lights…Camera…SQUAD! includes songs from Cosmosquad’s three studio CDs as well as Jeff Kollman’s solo effort, Shedding Skin. In addition to several bonus features available on this DVD, a secret online password found on the insert of this DVD package can be used at http://www.cosmosquad.com/ to watch a 20-minute interview with the band and 25 minutes of behind the scenes footage from the group’s Japan Tour of March 2008.

Format: DVD5
Video: NTSC 16:9 (720x480) VBR
Audio: Not specified (Dolby AC3, 2 ch)
Size: 3.97 Gb
Recovery: 3%

Songs / Tracks Listing:

01. NuMena
02. Fat, Mean & Nasty
03. The Spy Who Ate Her
04. Lubitorium
05. Road To Tanzania / Tribal Trance
06. Sheer Drama
07. While My Guitar Gently Screams
08. Epapo Funk
09. Grossalicious
10. Swink
11. I.N.S. Conspiracy

Total Time: 01:14:53

Line-up / Musicians:

-Jeff Kollman (guitar);
-Christopher Maloney (bass);
- Shane Gaalaas (drums)



Последний раз редактировалось: kelia99 (Пт Сен 03, 2010 5:12 pm), всего редактировалось 1 раз(а)
avatar
kelia99

Сообщения : 1065
Дата регистрации : 2009-05-06
Возраст : 57
Откуда : Украина,Запорожская обл.

http://in-rock-lossless.moole.ru/

Вернуться к началу Перейти вниз

Re: Cosmosquad(USA) – CD+DVD

Сообщение автор ????? в Пн Окт 05, 2009 12:57 am

А сольников Jeff Kollman-а ни у кого случаем нет? Нашел Live 2006, хотелось бы и студийные работы услышать Wink
avatar
?????
Гость


Вернуться к началу Перейти вниз

Re: Cosmosquad(USA) – CD+DVD

Сообщение автор kelia99 в Вс Авг 08, 2010 3:13 am

Cosmosquad - Live at the Baked Potato (2001)



Origin: USA
Genre: Progressive rock,Progressive metal,Fusion,instrumental
Quality: (FLAC,cue,Log, cover,3% Recovery record)
Size: 534 mb

Track List:

1. Sheer Drama (5:04)
2. Fat, Mean & Nasty (5:08)
3. El Perro Vaila (6:05)
4. I.N.S. Conspiracy (4:02)
5. Road to Tanzania / Tribal Trance (7:33)
6. Chinese Eyes (4:20)
7. My Guitar Gently Screams (3:01)
8. Creepy Spider Part II (5:49)
9. Jam for Jason (6:29)
10. In Loving Memory (5:12)
11. Journey Through Life (5:05)
12. Creepy Spider (6:49)
13. Funk N' Eh (5:49)
14. Red Eye Romp (8:04)

Total Time: 79:01




Line-up / Musicians :

- Jeff Kollman / Guitar
- Shane Gaalaas / Drums
- Barry Sparks / Bass

Releases information:
Marmaduke Records
Log EAC:
Exact Audio Copy V0.99 prebeta 5 from 4. May 2009

Отчёт EAC об извлечении, выполненном 7. августа 2010, 12:59

Cosmosquad / Live at the Baked Potato

Дисковод: HL-DT-STDVDRAM GSA-H66N Adapter: 3 ID: 0

Режим чтения : Достоверность
Использование точного потока : Да
Отключение кэша аудио : Да
Использование указателей C2 : Нет

Коррекция смещения при чтении : 667
Способность читать области Lead-in и Lead-out : Нет
Заполнение пропущенных сэмплов тишиной : Да
Удаление блоков с тишиной в начале и конце : Нет
При вычислениях CRC использовались нулевые сэмплы : Да
Интерфейс : Встроенный Win32-интерфейс для Win NT/2000

Выходной формат : Внутренние WAV-операции
Формат сэмплов : 44.100 Гц; 16 бит; стерео


TOC извлечённого CD

Трек | Старт | Длительность | Начальный сектор | Конечный сектор
---------------------------------------------------------------------
1 | 0:02.00 | 5:06.15 | 150 | 23114
2 | 5:08.15 | 5:10.27 | 23115 | 46391
3 | 10:18.42 | 6:07.60 | 46392 | 73976
4 | 16:26.27 | 4:04.25 | 73977 | 92301
5 | 20:30.52 | 7:35.08 | 92302 | 126434
6 | 28:05.60 | 4:22.00 | 126435 | 146084
7 | 32:27.60 | 3:03.30 | 146085 | 159839
8 | 35:31.15 | 5:51.57 | 159840 | 186221
9 | 41:22.72 | 6:31.48 | 186222 | 215594
10 | 47:54.45 | 5:14.72 | 215595 | 239216
11 | 53:09.42 | 5:07.10 | 239217 | 262251
12 | 58:16.52 | 6:51.03 | 262252 | 293079
13 | 65:07.55 | 5:51.72 | 293080 | 319476
14 | 70:59.52 | 8:04.23 | 319477 | 355799


Характеристики диапазона извлечения и сообщения об ошибках

Выбранный диапазон

Имя файла E:\CosQad-01\Cosmosquad - Live at the Baked Potato (2001)\Cosmosquad - Live at the Baked Potato.wav

Пиковый уровень 98.9 %
Качество диапазона 100.0 %
CRC копии A8B989F8
Копирование... OK

Ошибок не произошло


AccurateRip: сводка

Трек 1 нет в базе данных
Трек 2 нет в базе данных
Трек 3 нет в базе данных
Трек 4 нет в базе данных
Трек 5 нет в базе данных
Трек 6 нет в базе данных
Трек 7 нет в базе данных
Трек 8 нет в базе данных
Трек 9 нет в базе данных
Трек 10 нет в базе данных
Трек 11 нет в базе данных
Трек 12 нет в базе данных
Трек 13 нет в базе данных
Трек 14 нет в базе данных

Ни одного трека нет в базе AccurateRip

Конец отчёта



Последний раз редактировалось: kelia99 (Пт Сен 03, 2010 5:13 pm), всего редактировалось 2 раз(а)
avatar
kelia99

Сообщения : 1065
Дата регистрации : 2009-05-06
Возраст : 57
Откуда : Украина,Запорожская обл.

http://in-rock-lossless.moole.ru/

Вернуться к началу Перейти вниз

Re: Cosmosquad(USA) – CD+DVD

Сообщение автор tower в Вс Авг 08, 2010 3:33 am

Спасибо! Что-то тяжеленького захотелось...
avatar
tower

Сообщения : 549
Дата регистрации : 2009-11-03
Возраст : 61
Откуда : Питер

Вернуться к началу Перейти вниз

Re: Cosmosquad(USA) – CD+DVD

Сообщение автор tower в Вс Авг 08, 2010 8:05 pm

Вернулся поблагодарить еще раз. Прекрасный инструментал, Fusion проявляется явно, металл присутствует в минимальном количестве и довольно органично вписан в тему. Несколько напомнило LTE, местами Niacin проскакивает. Понравилось, опять вот на прослушивание поставил.
Так что благодарю, одновременно обращаясь с просьбой : нельзя ли реанимировать ссылки на Acid Test - 2007, на CD? А то не подают они признаки жизни...
avatar
tower

Сообщения : 549
Дата регистрации : 2009-11-03
Возраст : 61
Откуда : Питер

Вернуться к началу Перейти вниз

Re: Cosmosquad(USA) – CD+DVD

Сообщение автор kelia99 в Вс Авг 08, 2010 8:34 pm

tower пишет:Вернулся поблагодарить еще раз. Прекрасный инструментал, Fusion проявляется явно, металл присутствует в минимальном количестве и довольно органично вписан в тему. Несколько напомнило LTE, местами Niacin проскакивает. Понравилось, опять вот на прослушивание поставил.
Так что благодарю, одновременно обращаясь с просьбой : нельзя ли реанимировать ссылки на Acid Test - 2007, на CD? А то не подают они признаки жизни...
Мне очень приятно, что Вам понравилось. По-поводу просьбы о перезаливе: сделаем обязательно! Very Happy
avatar
kelia99

Сообщения : 1065
Дата регистрации : 2009-05-06
Возраст : 57
Откуда : Украина,Запорожская обл.

http://in-rock-lossless.moole.ru/

Вернуться к началу Перейти вниз

Re: Cosmosquad(USA) – CD+DVD

Сообщение автор tower в Вс Авг 08, 2010 8:55 pm

Весьма признателен !
avatar
tower

Сообщения : 549
Дата регистрации : 2009-11-03
Возраст : 61
Откуда : Питер

Вернуться к началу Перейти вниз

Re: Cosmosquad(USA) – CD+DVD

Сообщение автор ????? в Пн Авг 09, 2010 4:18 am

спасибо
avatar
?????
Гость


Вернуться к началу Перейти вниз

Re: Cosmosquad(USA) – CD+DVD

Сообщение автор kelia99 в Пн Авг 09, 2010 5:30 am

Cosmosquad(USA) – Acid Test - 2007 - перезалито.
avatar
kelia99

Сообщения : 1065
Дата регистрации : 2009-05-06
Возраст : 57
Откуда : Украина,Запорожская обл.

http://in-rock-lossless.moole.ru/

Вернуться к началу Перейти вниз

Re: Cosmosquad(USA) – CD+DVD

Сообщение автор ????? в Пн Авг 09, 2010 6:55 am

I have Squadrophenia to share if you want.

Just drop me a line, OK? Wink
avatar
?????
Гость


Вернуться к началу Перейти вниз

Re: Cosmosquad(USA) – CD+DVD

Сообщение автор kelia99 в Пн Авг 09, 2010 1:20 pm

Fusion_Brasil пишет:I have Squadrophenia to share if you want.

Just drop me a line, OK? Wink
OK!
avatar
kelia99

Сообщения : 1065
Дата регистрации : 2009-05-06
Возраст : 57
Откуда : Украина,Запорожская обл.

http://in-rock-lossless.moole.ru/

Вернуться к началу Перейти вниз

Cosmosquad - Squadrophenia

Сообщение автор ????? в Вт Авг 10, 2010 1:24 am


Another brilliant all-instrumental release from the monster trio known as Cosmosquad is entitled Squadrophenia. Retaining the multi-dimensional approach the band developed on their debut album, Cosmosquad have successfully managed to explore new musical territory and expand their sonic parameters on Squadrophenia. Displays of upbeat, funky outbursts give way to dark, hypnotic grooves, spastic madness meets ethereal beauty, and African tribal flavors intersect with melodic flurries to complete a perfectly balanced mosaic of shadow and light. Cosmosquad are that rare three-pronged constellation of stellar musicianship, unique songwriting and forward thinking attitude that allows for great musical things to happen. Squadrophenia is bound to establish the Jeff Kollman / Barry Sparks / Shane Gaalaas alliance as one of the frontrunners of the New Millennium hard fusion movement for years to come.

Musicians:
Jeff Kolmann - Guitar
Shane Gaalass - Drums + Percussion
Barry Sparks - Bass

Trax:
"Creepy Spider"
"Jam For Jason"
"Road To Tanzania"
"Winter In Innisfail"
"In Loving Memory"
"Creepy Spider #2"
"Sea Broth"
"Godzilla's Revenge"
"Cauldron Of Evil"
"Chinese Eyes"
"Tribal Dance (reprise)"

Source: My CD Collection
Format: EAC/FLAC | Separate Trax | CUE + Log | Complete Scans


Код:
http://www.rapidshare.com/files/264781679/COSMOSQUAD_-_SQUADROPHENIA.part1.rar
http://www.rapidshare.com/files/264787643/COSMOSQUAD_-_SQUADROPHENIA.part2.rar
http://www.rapidshare.com/files/264793908/COSMOSQUAD_-_SQUADROPHENIA.part3.rar
http://www.rapidshare.com/files/264800090/COSMOSQUAD_-_SQUADROPHENIA.part4.rar
http://www.rapidshare.com/files/264800243/COSMOSQUAD_-_SQUADROPHENIA.part5.rar
avatar
?????
Гость


Вернуться к началу Перейти вниз

Re: Cosmosquad(USA) – CD+DVD

Сообщение автор kelia99 в Вт Авг 10, 2010 1:29 am

Thanks, Fusion Brasil!!!
avatar
kelia99

Сообщения : 1065
Дата регистрации : 2009-05-06
Возраст : 57
Откуда : Украина,Запорожская обл.

http://in-rock-lossless.moole.ru/

Вернуться к началу Перейти вниз

Re: Cosmosquad(USA) – CD+DVD

Сообщение автор ????? в Вт Авг 10, 2010 1:51 am

kelia,

do you have the debut album?
avatar
?????
Гость


Вернуться к началу Перейти вниз

Re: Cosmosquad(USA) – CD+DVD

Сообщение автор kelia99 в Вт Авг 10, 2010 2:19 am

Fusion_Brasil пишет:kelia,

do you have the debut album?
Yes, is. But only it is made in Rossii. To fill in?
avatar
kelia99

Сообщения : 1065
Дата регистрации : 2009-05-06
Возраст : 57
Откуда : Украина,Запорожская обл.

http://in-rock-lossless.moole.ru/

Вернуться к началу Перейти вниз

Re: Cosmosquad(USA) – CD+DVD

Сообщение автор ????? в Вт Авг 10, 2010 6:33 am

kelia99 пишет:
Fusion_Brasil пишет:kelia,

do you have the debut album?
Yes, is. But only it is made in Rossii. To fill in?

I have it too but without scans Sad
avatar
?????
Гость


Вернуться к началу Перейти вниз

Re: Cosmosquad(USA) – CD+DVD

Сообщение автор kelia99 в Вт Авг 10, 2010 6:39 am

Fusion_Brasil пишет:I have it too but without scans Sad
Anything terrible. I already fill in, tomorrow will be Very Happy
avatar
kelia99

Сообщения : 1065
Дата регистрации : 2009-05-06
Возраст : 57
Откуда : Украина,Запорожская обл.

http://in-rock-lossless.moole.ru/

Вернуться к началу Перейти вниз

Re: Cosmosquad(USA) – CD+DVD

Сообщение автор ????? в Вт Авг 10, 2010 7:08 am

kelia99 пишет:
Fusion_Brasil пишет:I have it too but without scans Sad
Anything terrible. I already fill in, tomorrow will be Very Happy

Thanks in advance kelia cheers
avatar
?????
Гость


Вернуться к началу Перейти вниз

Re: Cosmosquad(USA) – CD+DVD

Сообщение автор olaf_alien в Вт Авг 10, 2010 4:56 pm

Взял на пробу концертник Live at the Baked Potato. Такой "странной" записи живого альбома я еще не встречал. Такое впечатление, что это запись с балванки, прожженой на НЕРО, в кот. по умолчанию стоят паузы 2 сек. между треками. Пришлось перелопачивать весь рип, чтобы выбросить эти паузы. Теперь на едином дыхании идет, как и положено. За музыку спасибо!!
avatar
olaf_alien

Сообщения : 817
Дата регистрации : 2009-05-05
Откуда : Страна дураков

Вернуться к началу Перейти вниз

Re: Cosmosquad(USA) – CD+DVD

Сообщение автор kelia99 в Вт Авг 10, 2010 6:11 pm

Cosmosquad - Cosmosquad (1997)



Year: 1997
Origin: USA
Genre: Progressive rock,Progressive metal,Fusion,instrumental
Quality: (FLAC,cue,Log, cover,3% Recovery record)
Size: 330 mb

Songs / Tracks Listing :

1. El Perro Vaila (5:28)
2. Three A.M. (5:58)
3. The Scene (5:49)
4. I.N.S. Conspiracy (3:51)
5. Epapo Funk (7:00)
6. Missing You (4:41)
7. Stretch Hog (5:57)
8. Pugs in Central Park (4:10)
9. Slowburn (5:57)
10. Galactic Voyage (5:42)





Line-up / Musicians :

- Jeff Kollman / Guitar
- Shane Gaalaas / Drums
- Barry Sparks / Bass

Releases information
Marmaduke Records

Log EAC:
Exact Audio Copy V0.99 prebeta 5 from 4. May 2009

Отчёт EAC об извлечении, выполненном 10. августа 2010, 1:30

Cosmosquad / Cosmosquad

Дисковод: HL-DT-STDVDRAM GSA-H66N Adapter: 3 ID: 0

Режим чтения : Достоверность
Использование точного потока : Да
Отключение кэша аудио : Да
Использование указателей C2 : Нет

Коррекция смещения при чтении : 667
Способность читать области Lead-in и Lead-out : Нет
Заполнение пропущенных сэмплов тишиной : Да
Удаление блоков с тишиной в начале и конце : Нет
При вычислениях CRC использовались нулевые сэмплы : Да
Интерфейс : Встроенный Win32-интерфейс для Win NT/2000

Выходной формат : Внутренние WAV-операции
Формат сэмплов : 44.100 Гц; 16 бит; стерео


TOC извлечённого CD

Трек | Старт | Длительность | Начальный сектор | Конечный сектор
---------------------------------------------------------------------
1 | 0:00.00 | 5:28.08 | 0 | 24607
2 | 5:28.08 | 5:58.71 | 24608 | 51528
3 | 11:27.04 | 5:49.38 | 51529 | 77741
4 | 17:16.42 | 3:51.33 | 77742 | 95099
5 | 21:08.00 | 7:00.20 | 95100 | 126619
6 | 28:08.20 | 4:41.64 | 126620 | 147758
7 | 32:50.09 | 5:57.43 | 147759 | 174576
8 | 38:47.52 | 4:10.10 | 174577 | 193336
9 | 42:57.62 | 5:57.74 | 193337 | 220185
10 | 48:55.61 | 5:42.44 | 220186 | 245879


Характеристики диапазона извлечения и сообщения об ошибках

Выбранный диапазон

Имя файла E:\Cosmosquad - Cosmosquad (1997)\Cosmosquad - Cosmosquad.wav

Пиковый уровень 96.6 %
Качество диапазона 99.9 %
CRC копии 12EAD6F3
Копирование... OK

Ошибок не произошло


AccurateRip: сводка

Трек 1 нет в базе данных
Трек 2 нет в базе данных
Трек 3 нет в базе данных
Трек 4 нет в базе данных
Трек 5 нет в базе данных
Трек 6 нет в базе данных
Трек 7 нет в базе данных
Трек 8 нет в базе данных
Трек 9 нет в базе данных
Трек 10 нет в базе данных

Ни одного трека нет в базе AccurateRip

Конец отчёта



Последний раз редактировалось: kelia99 (Пт Сен 03, 2010 5:15 pm), всего редактировалось 1 раз(а)
avatar
kelia99

Сообщения : 1065
Дата регистрации : 2009-05-06
Возраст : 57
Откуда : Украина,Запорожская обл.

http://in-rock-lossless.moole.ru/

Вернуться к началу Перейти вниз

Re: Cosmosquad(USA) – CD+DVD

Сообщение автор tower в Вт Авг 10, 2010 9:09 pm

Большое спасибо! Что называется, открыл для себя замечательную команду. Так что :
Благодарю, kelia99!
Many thanks, Fusion Brasil!
avatar
tower

Сообщения : 549
Дата регистрации : 2009-11-03
Возраст : 61
Откуда : Питер

Вернуться к началу Перейти вниз

Re: Cosmosquad(USA) – CD+DVD

Сообщение автор ????? в Вт Авг 10, 2010 9:17 pm

Many thanks !
Cпасибо !
avatar
?????
Гость


Вернуться к началу Перейти вниз

Re: Cosmosquad(USA) – CD+DVD

Сообщение автор Спонсируемый контент


Спонсируемый контент


Вернуться к началу Перейти вниз

Страница 1 из 2 1, 2  Следующий

Вернуться к началу


 
Права доступа к этому форуму:
Вы не можете отвечать на сообщения