Black Country Communion - s/t. (2010, J&R Adventures)

Перейти вниз

Black Country Communion - s/t. (2010, J&R Adventures)

Сообщение автор olaf_alien в Пт Окт 08, 2010 10:55 pm


Location: BOCA RATON, Florida, US
Artist: Black Country Communion
Album: Black Country Communion
Year: 2010
Label: J&R Adventures PRAR022338
Genre: Rock
Style: Hard Rock
Format: Lossless
Form: RAR(+3%) Flac(separate)+CUE+LOG+HQ SCANS
Size: 507 Mb + 2.21 Gb + 99.5 Mb
Source: My CD collection
Black Country Communion is a devastating head-on collision between American and British rock influences—a true supergroup that delivers a titanic rock experience greater than the sum of its supremely talented parts. The seed for Black Country Communion was planted when legendary frontman and bass guitarist Glenn Hughes (Deep Purple, Black Sabbath, Trapeze) and master blues-rock guitarist Joe Bonamassa combined forces on stage in Los Angeles in November 2009 for an explosive performance at Guitar Center’s King of the Blues event.
The brainchild of producer Kevin Shirley (Black Crowes, Aerosmith, Led Zeppelin), the band added to its rock lineage with powerhouse drummer Jason Bonham (Led Zeppelin, Foreigner) and keyboardist Derek Sherinian (Dream Theater, Billy Idol, Alice Cooper). Named after the industrial area in Britain where both Hughes and Bonham were born and raised, Black Country Communion began rehearsing and recording tracks written by both Bonamassa and Hughes at Shangri-La Studios in early 2010. Their debut Self Titled Album, will release on September 21, 2010 in the States on the J&R Adventures Label and September 20, 2010 in Europe on Mascot Records. The band is planning a tour of select venues in 2011.
Personnel:
- Glenn Hughes (lead & backing vocals, bass)
- Jason Bonham (drums, percussion)
- Derek Sherinian (keyboards)
- Joe Bonamassa ( guitars, backing vocals, lead vocals)

Tracklist:
1. Black Country 3:15
2. One Last Soul 3:52
3. The Great Divide 4:45
4. Down Again 5:45
5. Beggarman 4:51
6. Song Of Yesterday 8:33
7. No Time 4:18
8. Medusa 6:56
9. The Revolution In Me 4:59
10. Stand (At The Burning Tree) 7:01
11. Sista Jane 6:54
12. Too Late For The Sun 11:21

Total time: 1:12:35

DVD Chapters:
1. Music Video
2. Interviews
3. Behind The Scenes
4. Photos
5.Producer's Note

Total run time: 40:13

EAC log:
EAC extraction logfile from 7. October 2010, 0:18 for CD
Black Country Communion / Black Country Communion

Used drive : _NEC DVD_RW ND-3540A Adapter: 3 ID: 1
Read mode : Secure with NO C2, accurate stream, disable cache
Read offset correction : 48
Overread into Lead-In and Lead-Out : No

Used output format : C:\Program Files\FLAC\flac.exe (User Defined Encoder)
320 kBit/s
Additional command line options : -V -8 -T "artist=%a" -T "title=%t" -T "album=%g" -T "date=%y" -T "tracknumber=%n" -T "genre=%m" %s

Other options :
Fill up missing offset samples with silence : Yes
Delete leading and trailing silent blocks : No
Native Win32 interface for Win NT & 2000


Track 1
Filename D:\Music\olaf_alien\Black Country Communion\01 - Black Country.wav

Pre-gap length 0:00:02.00

Peak level 100.0 %
Track quality 100.0 %
Test CRC D4F11E37
Copy CRC D4F11E37
Copy OK

Track 2
Filename D:\Music\olaf_alien\Black Country Communion\02 - One Last Soul.wav

Peak level 100.0 %
Track quality 100.0 %
Test CRC 3BD19C9F
Copy CRC 3BD19C9F
Copy OK

Track 3
Filename D:\Music\olaf_alien\Black Country Communion\03 - The Great Divide.wav

Peak level 99.0 %
Track quality 100.0 %
Test CRC 60701E3B
Copy CRC 60701E3B
Copy OK

Track 4
Filename D:\Music\olaf_alien\Black Country Communion\04 - Down Again.wav

Peak level 100.0 %
Track quality 100.0 %
Test CRC 8728BF28
Copy CRC 8728BF28
Copy OK

Track 5
Filename D:\Music\olaf_alien\Black Country Communion\05 - Beggarman.wav

Peak level 99.5 %
Track quality 99.9 %
Test CRC 1174ECF2
Copy CRC 1174ECF2
Copy OK

Track 6
Filename D:\Music\olaf_alien\Black Country Communion\06 - Song Of Yesterday.wav

Pre-gap length 0:00:00.50

Peak level 100.0 %
Track quality 100.0 %
Test CRC E1CCC3FF
Copy CRC E1CCC3FF
Copy OK

Track 7
Filename D:\Music\olaf_alien\Black Country Communion\07 - No Time.wav

Pre-gap length 0:00:00.47

Peak level 100.0 %
Track quality 99.9 %
Test CRC EBB67DBF
Copy CRC EBB67DBF
Copy OK

Track 8
Filename D:\Music\olaf_alien\Black Country Communion\08 - Medusa.wav

Peak level 100.0 %
Track quality 100.0 %
Test CRC B9A25C30
Copy CRC B9A25C30
Copy OK

Track 9
Filename D:\Music\olaf_alien\Black Country Communion\09 - The Revolution In Me.wav

Peak level 97.3 %
Track quality 100.0 %
Test CRC DD7BAC1F
Copy CRC DD7BAC1F
Copy OK

Track 10
Filename D:\Music\olaf_alien\Black Country Communion\10 - Stand (At The Burning Tree).wav

Peak level 99.2 %
Track quality 100.0 %
Test CRC E1A11EAB
Copy CRC E1A11EAB
Copy OK

Track 11
Filename D:\Music\olaf_alien\Black Country Communion\11 - Sista Jane.wav

Peak level 100.0 %
Track quality 100.0 %
Test CRC 390F4F11
Copy CRC 390F4F11
Copy OK

Track 12
Filename D:\Music\olaf_alien\Black Country Communion\12 - Too Late For The Sun.wav

Peak level 98.3 %
Track quality 100.0 %
Test CRC 8EE72905
Copy CRC 8EE72905
Copy OK

No errors occured


End of status report

DVD Decrypter log:
I 23:00:56 DVD Decrypter Version 3.5.4.0 started!
I 23:00:56 Microsoft Windows XP Professional (5.1, Build 2600 : Service Pack 3)
I 23:00:56 Initialising SPTI...
I 23:00:56 Searching for SCSI / ATAPI devices...
I 23:00:56 Found 1 DVD±RW!
W 23:01:36 Possible Structure Protection Found!
W 23:01:36 1 area has been marked as 'suspect'.
W 23:01:36 Dummy sectors will be inserted where necessary.
I 23:02:16 Operation Started!
I 23:02:16 Source Device: [3:1:0] _NEC DVD_RW ND-3540A 1.01 (F:) (ATA)
I 23:02:16 Source Media Type: DVD-ROM
I 23:02:16 Source Media Region Code: 1; 2; 3; 4; 5; 6; 7; 8
I 23:02:16 Source Media Copyright Protection System Type: CSS/CPPM
I 23:02:16 Source Media Implementation Identifier: Spruce Technologies
I 23:02:16 Destination Folder: G:\Olaf_alien\Black Country Communion - DVD\VIDEO_TS\
I 23:02:16 File Splitting: By File
I 23:02:16 Remove Structure Protection: Yes
I 23:02:16 Bad Sector Removal Method: Normal
I 23:02:16 Detect Mastering Errors: No
I 23:02:16 Multi Angle Processing: No
I 23:02:16 Remove Macrovision Protection: Yes
I 23:02:16 Stream Processing: No
I 23:02:16 Copying VIDEO_TS.IFO... (LBA: 297 - 306) - KEY: N/A
I 23:02:17 Copying VIDEO_TS.VOB... (LBA: 307 - 363) - KEY: N/A
I 23:02:17 Copying VIDEO_TS.BUP... (LBA: 364 - 373) - KEY: N/A
I 23:02:17 Copying VTS_01_0.IFO... (LBA: 374 - 383) - KEY: N/A
I 23:02:17 Decrypting VTS_01_0.VOB... (LBA: 384 - 6779) - KEY: C0 05 F5 E1 BC
I 23:02:20 Decrypting VTS_01_1.VOB... (LBA: 6780 - 12152) - KEY: C0 05 F5 E1 BC
I 23:02:23 Copying VTS_01_0.BUP... (LBA: 12153 - 12162) - KEY: N/A
I 23:02:23 Copying VTS_02_0.IFO... (LBA: 12163 - 12173) - KEY: N/A
I 23:02:23 Decrypting VTS_02_0.VOB... (LBA: 12174 - 12230) - KEY: C0 05 F5 E1 BD
I 23:02:23 Decrypting VTS_02_1.VOB... (LBA: 12231 - 191968) - KEY: C0 05 F5 E1 BD
I 23:03:37 Copying VTS_02_0.BUP... (LBA: 191969 - 191979) - KEY: N/A
I 23:03:37 Copying VTS_03_0.IFO... (LBA: 191980 - 191992) - KEY: N/A
I 23:03:37 Decrypting VTS_03_0.VOB... (LBA: 191993 - 192049) - KEY: C0 05 F5 E1 BE
I 23:03:38 Decrypting VTS_03_1.VOB... (LBA: 192050 - 558102) - KEY: C0 05 F5 E1 BE
I 23:05:41 Copying VTS_03_0.BUP... (LBA: 558103 - 558115) - KEY: N/A
I 23:05:41 Copying VTS_04_0.IFO... (LBA: 558116 - 558130) - KEY: N/A
I 23:05:41 Decrypting VTS_04_0.VOB... (LBA: 558131 - 558187) - KEY: C0 05 F5 E1 BF
I 23:05:41 Decrypting VTS_04_1.VOB... (LBA: 558188 - 1023566) - KEY: C0 05 F5 E1 BF
I 23:07:50 Copying VTS_04_0.BUP... (LBA: 1023567 - 1023581) - KEY: N/A
I 23:07:50 Copying VTS_05_0.IFO... (LBA: 1023582 - 1023590) - KEY: N/A
I 23:07:50 Decrypting VTS_05_0.VOB... (LBA: 1023591 - 1023647) - KEY: C0 05 F5 E1 C0
I 23:07:50 Decrypting VTS_05_1.VOB... (LBA: 1023648 - 1072547) - KEY: C0 05 F5 E1 C0
I 23:08:02 Copying VTS_05_0.BUP... (LBA: 1072548 - 1072556) - KEY: N/A
I 23:08:02 Copying VTS_06_0.IFO... (LBA: 1072557 - 1072567) - KEY: N/A
I 23:08:02 Decrypting VTS_06_0.VOB... (LBA: 1072568 - 1072624) - KEY: C0 05 F5 E1 C1
I 23:08:02 Decrypting VTS_06_1.VOB... (LBA: 1072625 - 1262864) - KEY: C0 05 F5 E1 C1
I 23:08:48 Copying VTS_06_0.BUP... (LBA: 1262865 - 1262875) - KEY: N/A
I 23:08:48 Operation Successfully Completed! - Duration: 00:06:32
I 23:08:48 Average Read Rate: 6 441 KB/s (4.7x) - Maximum Read Rate: 8 708 KB/s (6.3x)
avatar
olaf_alien

Сообщения : 817
Дата регистрации : 2009-05-05
Откуда : Страна дураков

Вернуться к началу Перейти вниз

Вернуться к началу

- Похожие темы

 
Права доступа к этому форуму:
Вы не можете отвечать на сообщения