Greg Howe - Sound Proof (2008)

Перейти вниз

Greg Howe - Sound Proof (2008)

Сообщение автор kelia99 в Ср Авг 25, 2010 5:50 pm

Greg Howe - Sound Proof (2008)



Origin: USA
Genre: Neo Classical, Fusion, Instrumental Virtuoso
Quality: (FLAC,cue,Log,Cover,3% Recovery record)
Size: 379 Mb
Uploated to: RapidShare

Track List:

01. Intro
02. Emergency Exit
03.Tell Me Something Good
04. Connoiseur (part1)
05. Reunion
06. Morning View
07. Wakie Talkie
08. Rehearsal Note
09. Side Note
10. Sunset in El Paso
11. Wright Me a Song
12. Child`s Play
13. Sound Proof
14. Connoiseur (part2)

Total Time: 56:28





Line-up / Musicians :

-Greg Howe / Guitar, Production
-Jon Reshard / Bass
-Gianluca Palmieri / Drums
-David Cook / Keyboards
-Dennis Hamm / Keyboard Solo on "Side Note"
-Elvio Fernandez / Voice
-Dale V. Fischer / Voice

Log EAC:
Exact Audio Copy V0.99 prebeta 5 from 4. May 2009

EAC extraction logfile from 25. August 2010, 1:21

Greg Howe / Sound Proof

Used drive : HL-DT-STDVDRAM GSA-H66N Adapter: 3 ID: 0

Read mode : Secure
Utilize accurate stream : Yes
Defeat audio cache : Yes
Make use of C2 pointers : No

Read offset correction : 667
Overread into Lead-In and Lead-Out : No
Fill up missing offset samples with silence : Yes
Delete leading and trailing silent blocks : No
Null samples used in CRC calculations : Yes
Used interface : Native Win32 interface for Win NT & 2000

Used output format : Internal WAV Routines
Sample format : 44.100 Hz; 16 Bit; Stereo


TOC of the extracted CD

Track | Start | Length | Start sector | End sector
---------------------------------------------------------
1 | 0:00.00 | 0:13.56 | 0 | 1030
2 | 0:13.56 | 7:31.22 | 1031 | 34877
3 | 7:45.03 | 5:37.64 | 34878 | 60216
4 | 13:22.67 | 0:29.30 | 60217 | 62421
5 | 13:52.22 | 5:53.06 | 62422 | 88902
6 | 19:45.28 | 4:36.54 | 88903 | 109656
7 | 24:22.07 | 6:13.59 | 109657 | 137690
8 | 30:35.66 | 0:16.58 | 137691 | 138948
9 | 30:52.49 | 7:14.65 | 138949 | 171563
10 | 38:07.39 | 4:15.24 | 171564 | 190712
11 | 42:22.63 | 0:30.25 | 190713 | 192987
12 | 42:53.13 | 4:23.52 | 192988 | 212764
13 | 47:16.65 | 6:42.34 | 212765 | 242948
14 | 53:59.24 | 2:29.00 | 242949 | 254123


Range status and errors

Selected range

Filename E:\Greg Howe - Sound Proof (2008)\Greg Howe - Sound Proof.wav

Peak level 100.0 %
Range quality 100.0 %
Copy CRC C6C69B17
Copy OK

No errors occurred


AccurateRip summary

Track 1 accurately ripped (confidence 10) [2EEF7425]
Track 2 accurately ripped (confidence 10) [9B4DCB81]
Track 3 accurately ripped (confidence 10) [C6B5D774]
Track 4 accurately ripped (confidence 10) [6158590C]
Track 5 accurately ripped (confidence 10) [F0A7F981]
Track 6 accurately ripped (confidence 10) [A652B813]
Track 7 accurately ripped (confidence 10) [FDBB2E1D]
Track 8 accurately ripped (confidence 10) [593DB5B1]
Track 9 accurately ripped (confidence 10) [94F60B9A]
Track 10 accurately ripped (confidence 10) [C1911FF5]
Track 11 accurately ripped (confidence 10) [94922E19]
Track 12 accurately ripped (confidence 10) [DEB5CBC6]
Track 13 accurately ripped (confidence 10) [E1DDBBAF]
Track 14 accurately ripped (confidence 10) [0C315A33]

All tracks accurately ripped

End of status report
avatar
kelia99

Сообщения : 1065
Дата регистрации : 2009-05-06
Возраст : 57
Откуда : Украина,Запорожская обл.

http://in-rock-lossless.moole.ru/

Вернуться к началу Перейти вниз

Вернуться к началу

- Похожие темы

 
Права доступа к этому форуму:
Вы не можете отвечать на сообщения