La Bambibanda E Melodie - Bambibanda E Melodie (1974)

Перейти вниз

La Bambibanda E Melodie - Bambibanda E Melodie (1974)

Сообщение автор kelia99 в Сб Авг 14, 2010 5:34 pm





Studio Album, released in 1974

La Bambibanda E Melodie biography
In 1974 a new incarnation of GARYBALDI was formed by Bambi Fossati along with old cohort Maurizio Cassinelli, bassist Roberto Ricci and indian percussionist Ramasandiran Somusundaram as BAMBIBANDA & MELODIE. Their only album has the usual leading role for Bambi's guitar, but the use of percussion gives a more latin-inspired feel that sometimes reminds Santana.

Percussionist Ramasandiran Somusundaram, previously active as session musician, also released an album and no less than three singles (in a more commercial vein) between 1974 and 1976 on the Magma label.

Bambi Fossati kept playing under the name of BAMBIBANDA for some years before reforming the old group in late 80's with a new line up including Marco Mazza (guitar) and Carlo Milan (bass) along with Maurizio Cassinelli, and they released an album, more song-oriented, in 1990, as Bambi Fossati & GARYBALDI.

Year: 1974
Origin: Italy
Genre: Rock Progressivo Italiano
Quality: (FLAC,cue,Log, cover,3% Recovery record)
Size: 254 mb

Рип не мой, но пришлось делать свой log, по причине его отсутствия.

Track List:

1. Pian Della Tortilla (15:10)
2. Libera E Felice (6:51)
3. Calabuig! (6:34)
4. Piccolo Gitano (4:14)
5. Mare Delle Terre Medie (7:19)
6. Canto Del Sole (2:07)

Total Time: 42:16



Line-up / Musicians :

- Bambi Fossati / guitar, vocals
- Maurizio Cassinelli / drums
- Ramasandiran Somusundaram / percussion
- Roberto Ricci / bass

Releases information
LP Fonit LPO 09085 (1974)
CD Fonit Cetra CDLP 431 (1991)

Log EAC:
Exact Audio Copy V0.99 prebeta 5 from 4. May 2009

EAC extraction logfile from 14. August 2010, 0:32

La Bambibanda E Melodie / La Bambibanda E Melodie

Used drive : HL-DT-STDVDRAM GSA-H66N Adapter: 3 ID: 0

Read mode : Secure
Utilize accurate stream : Yes
Defeat audio cache : Yes
Make use of C2 pointers : No

Read offset correction : 667
Overread into Lead-In and Lead-Out : No
Fill up missing offset samples with silence : Yes
Delete leading and trailing silent blocks : No
Null samples used in CRC calculations : Yes
Used interface : Native Win32 interface for Win NT & 2000

Used output format : Internal WAV Routines
Sample format : 44.100 Hz; 16 Bit; Stereo


TOC of the extracted CD

Track | Start | Length | Start sector | End sector
---------------------------------------------------------
1 | 0:00.00 | 15:14.26 | 0 | 68575
2 | 15:14.26 | 6:48.54 | 68576 | 99229
3 | 22:03.05 | 6:34.61 | 99230 | 128840
4 | 28:37.66 | 4:13.25 | 128841 | 147840
5 | 32:51.16 | 7:17.04 | 147841 | 180619
6 | 40:08.20 | 2:08.42 | 180620 | 190261


Range status and errors

Selected range

Filename E:\La Bambibanda E Melodie - Bambibanda E Melodie (1974)\La Bambibanda E Melodie - La Bambibanda E Melodie.wav

Peak level 100.0 %
Range quality 100.0 %
Copy CRC A372B643
Copy OK

No errors occurred


AccurateRip summary

Track 1 not present in database
Track 2 not present in database
Track 3 not present in database
Track 4 not present in database
Track 5 not present in database
Track 6 not present in database

None of the tracks are present in the AccurateRip database

End of status report


Последний раз редактировалось: kelia99 (Пт Сен 03, 2010 5:00 pm), всего редактировалось 1 раз(а)
avatar
kelia99

Сообщения : 1065
Дата регистрации : 2009-05-06
Возраст : 57
Откуда : Украина,Запорожская обл.

http://in-rock-lossless.moole.ru/

Вернуться к началу Перейти вниз

Re: La Bambibanda E Melodie - Bambibanda E Melodie (1974)

Сообщение автор ????? в Сб Авг 14, 2010 5:49 pm

Спасибо, берем обязательно
avatar
?????
Гость


Вернуться к началу Перейти вниз

Re: La Bambibanda E Melodie - Bambibanda E Melodie (1974)

Сообщение автор tower в Вс Авг 15, 2010 12:49 am

Спасибо!
avatar
tower

Сообщения : 549
Дата регистрации : 2009-11-03
Возраст : 61
Откуда : Питер

Вернуться к началу Перейти вниз

Re: La Bambibanda E Melodie - Bambibanda E Melodie (1974)

Сообщение автор Спонсируемый контент


Спонсируемый контент


Вернуться к началу Перейти вниз

Вернуться к началу

- Похожие темы

 
Права доступа к этому форуму:
Вы не можете отвечать на сообщения