AREKNAMES(Italy)

Перейти вниз

AREKNAMES(Italy)

Сообщение автор pars в Вт Окт 05, 2010 5:22 pm

Areknamés-In Case of Loss..(2010)


Third album from this wonderful Italian band that bring us back to the 70's. Strongly influenced by Van Der Graaf Generator and the Canterbury scene and bands such as Still Life, Quatermass and Indian Summer can be heard in this fresh album with plenty of violin, cello and saxophone
missingpiece.net

Artist:Areknamés
Album:In Case of Loss..
Studio Album, released in 2010
Style: Progressive rock/Eclectic Prog
Выходной формат : EAC/FLAC Image+CUE
Выбранный битрейт : 1024 kBit/s
Size:360 МБ (378 208 256 байт)
Total Time 57:54
Source: my CD collection
Made in Italy ?
CD Black Widow Records BWR-120

Songs / Tracks Listing
1. Beached
2. Alone
3. Dateless Diary
4. Don't Move
5. A New Song
6. Where
7. The Very Last Number

Line-up / Musicians
- Michele Epifani / Hammond organ, synthesizers, vocals
- Stefano Colombi / guitars
- Piero Ranalli / bass
- Luca Falsetti / drums

Arrow Прогархивы
Arrow MySpace

About Areknames

Areknamés are a psych dark progressive band from Italy.
They are lead by Michele Epifani, organ player and classical composer, who is the author of Areknamés music and lyrics.
In 2003 Areknamés recorded their debut album Areknamés, which got lots of positive reviews from press and audience. They started playing gigs around Europe (Italy, Germany, Belgium).
In 2006 Areknamés got back in the studios with a renewed line-up for recording Love Hate Round Trip, winner at ProgAwards and acclaimed by international critics.
Next year Areknamés were back on tour and recorded Live at Burg Herzberg Festival 2007 in Germany.
LOG:

Exact Audio Copy V0.99 prebeta 4 from 23. January 2008

Отчёт EAC об извлечении, выполненном 4. октября 2010, 18:10

Areknames / In Case Of Loss

Дисковод: HL-DT-STDVD-RAM GH22NP20 Adapter: 1 ID: 0

Режим чтения : Достоверность
Использование точного потока : Да
Отключение кэша аудио : Да
Использование указателей C2 : Нет

Коррекция смещения при чтении : 102
Способность читать области Lead-in и Lead-out : Нет
Заполнение пропущенных сэмплов тишиной : Да
Удаление блоков с тишиной в начале и конце : Нет
При вычислениях CRC использовались нулевые сэмплы : Да
Интерфейс : Встроенный Win32-интерфейс для Win NT/2000

Выходной формат : Пользовательский кодировщик
Выбранный битрейт : 1024 kBit/s
Качество : Высокий
Добавление ID3-тэга : Да
Утилита сжатия : C:\Program Files\Exact Audio Copy\FLAC\FLAC.EXE
Дополнительные параметры : -6 -V -T "ARTIST=%a" -T "TITLE=%t" -T "ALBUM=%g" -T "DATE=%y" -T "TRACKNUMBER=%n" -T "GENRE=%m" -T "COMMENT=%e" %s -o %d


TOC извлечённого CD

Трек | Старт | Длительность | Начальный сектор | Конечный сектор
---------------------------------------------------------------------
1 | 0:00.00 | 6:58.44 | 0 | 31393
2 | 6:58.44 | 5:49.09 | 31394 | 57577
3 | 12:47.53 | 5:31.23 | 57578 | 82425
4 | 18:19.01 | 5:56.11 | 82426 | 109136
5 | 24:15.12 | 7:30.38 | 109137 | 142924
6 | 31:45.50 | 5:09.65 | 142925 | 166164
7 | 36:55.40 | 20:59.29 | 166165 | 260618


Характеристики диапазона извлечения и сообщения об ошибках

Выбранный диапазон

Имя файла D:\mydoc\My Music\Areknames\Areknames - In Case Of Loss.wav

Пиковый уровень 98.5 %
Качество диапазона 100.0 %
CRC копии BF8D3E6A
Копирование... OK

Ошибок не произошло


AccurateRip: сводка

Трек 1 точное извлечение (доверие 1) [66790BE3]
Трек 2 точное извлечение (доверие 1) [BCF87333]
Трек 3 точное извлечение (доверие 1) [9219BE42]
Трек 4 точное извлечение (доверие 1) [95D2A4D9]
Трек 5 точное извлечение (доверие 1) [88C9A103]
Трек 6 точное извлечение (доверие 1) [50683EFD]
Трек 7 точное извлечение (доверие 1) [FB52BF58]

Все треки извлечены точно

Конец отчёта
avatar
pars

Сообщения : 216
Дата регистрации : 2009-05-05
Возраст : 55
Откуда : Odessa,Ukraine

Вернуться к началу Перейти вниз

Re: AREKNAMES(Italy)

Сообщение автор errny в Вт Окт 05, 2010 5:27 pm

Ух ты, класс! :-)
avatar
errny

Сообщения : 138
Дата регистрации : 2009-09-28
Возраст : 60
Откуда : город-герой Новороссийск

Вернуться к началу Перейти вниз

Re: AREKNAMES(Italy)

Сообщение автор tower в Вт Окт 05, 2010 6:00 pm

...with plenty of violin, cello and saxophone...
Как заманчиво звучит... Большое спасибо!
avatar
tower

Сообщения : 549
Дата регистрации : 2009-11-03
Возраст : 61
Откуда : Питер

Вернуться к началу Перейти вниз

Re: AREKNAMES(Italy)

Сообщение автор ????? в Вт Окт 05, 2010 7:46 pm

Спасибо!!!
avatar
?????
Гость


Вернуться к началу Перейти вниз

Re: AREKNAMES(Italy)

Сообщение автор ????? в Ср Окт 06, 2010 2:15 am

Thank you!
Where are the links please?
avatar
?????
Гость


Вернуться к началу Перейти вниз

Re: AREKNAMES(Italy)

Сообщение автор ????? в Ср Окт 06, 2010 3:48 am

спасибо!
avatar
?????
Гость


Вернуться к началу Перейти вниз

Re: AREKNAMES(Italy)

Сообщение автор ????? в Пт Окт 08, 2010 12:57 am

Many Thanks Mr. PARS !!!
avatar
?????
Гость


Вернуться к началу Перейти вниз

Re: AREKNAMES(Italy)

Сообщение автор ????? в Пт Окт 08, 2010 1:13 am

thanx!
avatar
?????
Гость


Вернуться к началу Перейти вниз

Re: AREKNAMES(Italy)

Сообщение автор kirill-purple в Пт Окт 08, 2010 2:30 am

Большое спасибо!
avatar
kirill-purple

Сообщения : 282
Дата регистрации : 2010-01-21
Возраст : 54
Откуда : Россия,Брянск

Вернуться к началу Перейти вниз

Re: AREKNAMES(Italy)

Сообщение автор ????? в Пт Окт 08, 2010 1:14 pm

Спасибо!
avatar
?????
Гость


Вернуться к началу Перейти вниз

Re: AREKNAMES(Italy)

Сообщение автор andre88 в Сб Окт 09, 2010 3:53 pm

Fine Album!Thanks
avatar
andre88

Сообщения : 41
Дата регистрации : 2010-08-08
Возраст : 59

Вернуться к началу Перейти вниз

Re: AREKNAMES(Italy)

Сообщение автор ????? в Пн Окт 11, 2010 8:01 pm

Hmm, I still don't get it: Please somebody tell me where are the download links? Many thanks!
avatar
?????
Гость


Вернуться к началу Перейти вниз

Re: AREKNAMES(Italy)

Сообщение автор ????? в Пт Окт 22, 2010 3:45 am

Спасибо большое, отличный альбом!
avatar
?????
Гость


Вернуться к началу Перейти вниз

Re: AREKNAMES(Italy)

Сообщение автор kelia99 в Пт Окт 22, 2010 3:51 am

Есть: Areknames - Areknames (2003) и Areknames - Love Hate Round Trip (2006) с треккера.... Сигнальте. Wink
avatar
kelia99

Сообщения : 1065
Дата регистрации : 2009-05-06
Возраст : 57
Откуда : Украина,Запорожская обл.

http://in-rock-lossless.moole.ru/

Вернуться к началу Перейти вниз

Re: AREKNAMES(Italy)

Сообщение автор tower в Пт Окт 22, 2010 5:32 am

Есть: Areknames - Areknames ... Areknames - Love Hate Round Trip
Уже сигналю! Very Happy
С удовольствием воспользуюсь предложением, 2010-й понравился, если более ранние в том же ключе, будет очень интересно.
avatar
tower

Сообщения : 549
Дата регистрации : 2009-11-03
Возраст : 61
Откуда : Питер

Вернуться к началу Перейти вниз

Re: AREKNAMES(Italy)

Сообщение автор kelia99 в Пт Окт 22, 2010 5:35 pm

Areknames - Areknames (2003)



Origin: Italy
Genre: ItaloProgRock
Quality: (FLAC (tracks),cue,Log, cover,3% Recovery record)
Size: 351 mb
Uploated to: Multiupload
Source: katosich / rutracker.org

Track List:

1. A Day Among Four Walls (12:04)
2. Wasted Time (5:40)
3. Down (10:28 )
4. Season of Death (8:43)
5. Boredom (8:33)
6. Grain of Sand Lost in the Sea (8:55)

Total Time: 54:22



Line-up / Musicians :

- Michele Epifani: organ, electric piano, Mellotron, synthesizers, harpsichord, acoustic & electric guitars, recorder, vocals
- Piero Ranalli: bass
- Mino Vitelli: drums, djembe, Arabian tabla, spring drum

Credits:
music and lyrics by Michele Epifani
recorded, mixed and producted by Areknames
(P) 2003 Black Widow

This is an Italian trio featuring Michele Epifani (keyboards, guitars and vocals) as the musical brainchild. On their eponymous debut-CD we can enjoy pleasant progrock that frequently alternates from mellow or compelling to sumptuous delivering a lush organ sound and melancholic vocals. In general the compositions are based upon creating symphonic landscapes with analogue keyboards like the Hammond and Farfisa organ, Mellotron and Fender Rhodes electric piano. The electric guitarwork is sensitive and in combination with the lush organ sound a very compelling element. Although at some moments my attention fades away, the music from Areknames contains lots of strong breaks and captivating accelarations and changing climates. The information booklet mentions many bands that were an inspiration, in my opinion VDGG, early Pink Floyd, Atomic Rooster and Il Balletto di Bronzo were the main sources. This is not a very memorable of inventive CD but if you like to dream away on warm, keyboard-oriented prog, this one is a pleasant surprise.

Maybe the best dark prog album I've listened till now, surely the best Italian dark prog album.
Log EAC:
EAC extraction logfile from 8. October 2005, 8:06 for CD
Areknames / Areknames

Used drive : PIONEER DVD-ROM DVD-114F Adapter: 0 ID: 1
Read mode : Secure with NO C2, accurate stream, disable cache
Read offset correction : 696
Overread into Lead-In and Lead-Out : Yes

Used output format : Internal WAV Routines
44.100 Hz; 16 Bit; Stereo

Other options :
Fill up missing offset samples with silence : Yes
Delete leading and trailing silent blocks : No
Installed external ASPI interface

Track 1
Filename C:\Documenti\Fabio\Musica\Areknames - Areknames (2003) [FLAC]\01 - A Day Among Four Walls.wav

Pre-gap length 0:00:02.00

Peak level 97.7 %
Track quality 100.0 %
Test CRC 710FC1DB
Copy CRC 710FC1DB
Copy OK

Track 2
Filename C:\Documenti\Fabio\Musica\Areknames - Areknames (2003) [FLAC]\02 - Wasted Time.wav

Pre-gap length 0:00:01.26

Peak level 97.7 %
Track quality 100.0 %
Test CRC EC58292A
Copy CRC EC58292A
Copy OK

Track 3
Filename C:\Documenti\Fabio\Musica\Areknames - Areknames (2003) [FLAC]\03 - Down.wav

Pre-gap length 0:00:01.17

Peak level 97.7 %
Track quality 99.9 %
Test CRC 7992F9EA
Copy CRC 7992F9EA
Copy OK

Track 4
Filename C:\Documenti\Fabio\Musica\Areknames - Areknames (2003) [FLAC]\04 - Season Of Death.wav

Peak level 97.7 %
Track quality 100.0 %
Test CRC 434CD270
Copy CRC 434CD270
Copy OK

Track 5
Filename C:\Documenti\Fabio\Musica\Areknames - Areknames (2003) [FLAC]\05 - Boredom.wav

Peak level 97.7 %
Track quality 100.0 %
Test CRC A64DCCE0
Copy CRC A64DCCE0
Copy OK

Track 6
Filename C:\Documenti\Fabio\Musica\Areknames - Areknames (2003) [FLAC]\06 - Grain Of Sand Lost In The Sea.wav

Pre-gap length 0:00:01.31

Peak level 97.7 %
Track quality 99.9 %
Test CRC E6ADB7E3
Copy CRC E6ADB7E3
Copy OK

No errors occured

End of status report


avatar
kelia99

Сообщения : 1065
Дата регистрации : 2009-05-06
Возраст : 57
Откуда : Украина,Запорожская обл.

http://in-rock-lossless.moole.ru/

Вернуться к началу Перейти вниз

Re: AREKNAMES(Italy)

Сообщение автор andre88 в Вт Дек 07, 2010 7:30 pm

I agree this Album is a Milestone!
avatar
andre88

Сообщения : 41
Дата регистрации : 2010-08-08
Возраст : 59

Вернуться к началу Перейти вниз

Re: AREKNAMES(Italy)

Сообщение автор ????? в Чт Дек 09, 2010 12:26 am

У меня просьба к PARS и Kelia99. Скиньте, пожалуйста, ссылки на 2010 и 2006. За ранее благодарю.
avatar
?????
Гость


Вернуться к началу Перейти вниз

Re: AREKNAMES(Italy)

Сообщение автор Спонсируемый контент


Спонсируемый контент


Вернуться к началу Перейти вниз

Вернуться к началу


 
Права доступа к этому форуму:
Вы не можете отвечать на сообщения