Fission Trip(Dallas, L.A.,Nashville USA & London UK)

Перейти вниз

Fission Trip(Dallas, L.A.,Nashville USA & London UK)

Сообщение автор pars в Пн Окт 04, 2010 10:15 pm

Fission Trip-volumn one(2005)


Great album from this new supergroup with Ian Wallace (King Crimson), Mel Collins (King Crimson, Camel), Michael Clay (Hands), Ernie Myers (Hands) and Adrian Belew (King Crimson) guesting.
The result is a tasteful sandwich where the bread is early King Crimson, the butter is Van Der Graaf Generator and the cheese is Genesis. All tracks have complex beautiful arrangements with great vocals. The last track on the album "Better Be Right" is my favourite track beacuse it has the same beautiful feeling as King Crimsons masterpiece " I Talk to The Wind". The albums name "Volume One" makes me hope for many more "Volumes" from this great band.
missingpiece.net


Artist:Fission Trip
Album:volumn one
Studio Album, released in 2005
Style: Progressive rock
Выходной формат : EAC/FLAC Image+CUE
Выбранный битрейт : 1024 kBit/s
Size:411 МБ (431 722 496 байт)
Total Time : 0:57:08155
Source: my CD collection
Made in England
Voiceprint VC369CD


These days Ian Wallace can be found reunited with former members of King Crimson in the hugely popular 21st Century Schizoid Band. "Fission Trip" is the latest album to come from this highly respected drummer and includes the tracks "Make It ... Full DescriptionAll Up", "Spectrum" and "Better Be Right". The album will no doubt appeal to fans of Wallace's previous solo album "Happiness With Minimal Side Effects" and of course his work with King Crimson and the 21st Century Schizoid Band.

01. Make It All Up [0:06:47.12]
02. Sonething's Going On [0:05:16.71]
03. Spectrum [0:05:37.32]
04. Master [0:06:57.54]
05. Going [0:05:17.71]
06. Santa Maria [0:08:28.63]
07. Silent Life [0:04:42.05]
08. The Valley Below [0:08:26.72]
09. Better Be Right [0:05:33.44]

Audio Mixer: Ian Wallace.
Recording information: Labmix Sound, Nashville, TN (02/2004); Rfoc Studios, Dallas, TX (02/2004).

Fission Trip: Nel Collins (various instruments); Michael Clay, John Billings.
Personnel: Ernie Myers (vocals, guitar, background vocals); Ian Wallace (vocals, drums, background vocals); Michael Clay (guitar, piano, keyboards); Adrian Belew (guitar); John Billings (bass guitar).
Additional personnel: Adrian Belew.

Лог-файл
Спойлер:

Exact Audio Copy V0.99 prebeta 4 from 23. January 2008

Отчёт EAC об извлечении, выполненном 30. сентября 2010, 16:08

Fission Trip / volumn one

Дисковод: HL-DT-STDVD-RAM GH22NP20 Adapter: 1 ID: 0

Режим чтения : Достоверность
Использование точного потока : Да
Отключение кэша аудио : Да
Использование указателей C2 : Нет

Коррекция смещения при чтении : 102
Способность читать области Lead-in и Lead-out : Нет
Заполнение пропущенных сэмплов тишиной : Да
Удаление блоков с тишиной в начале и конце : Нет
При вычислениях CRC использовались нулевые сэмплы : Да
Интерфейс : Встроенный Win32-интерфейс для Win NT/2000

Выходной формат : Пользовательский кодировщик
Выбранный битрейт : 1024 kBit/s
Качество : Высокий
Добавление ID3-тэга : Да
Утилита сжатия : C:\Program Files\Exact Audio Copy\FLAC\FLAC.EXE
Дополнительные параметры : -6 -V -T "ARTIST=%a" -T "TITLE=%t" -T "ALBUM=%g" -T "DATE=%y" -T "TRACKNUMBER=%n" -T "GENRE=%m" -T "COMMENT=%e" %s -o %d


TOC извлечённого CD

Трек | Старт | Длительность | Начальный сектор | Конечный сектор
---------------------------------------------------------------------
1 | 0:00.00 | 6:47.12 | 0 | 30536
2 | 6:47.12 | 5:16.71 | 30537 | 54307
3 | 12:04.08 | 5:37.32 | 54308 | 79614
4 | 17:41.40 | 6:57.54 | 79615 | 110943
5 | 24:39.19 | 5:17.71 | 110944 | 134789
6 | 29:57.15 | 8:28.63 | 134790 | 172952
7 | 38:26.03 | 4:42.05 | 172953 | 194107
8 | 43:08.08 | 8:26.72 | 194108 | 232129
9 | 51:35.05 | 5:33.44 | 232130 | 257148


Характеристики диапазона извлечения и сообщения об ошибках

Выбранный диапазон

Имя файла D:\mydoc\My Music\Fission Trip\Fission Trip - volumn one.wav

Пиковый уровень 98.8 %
Качество диапазона 100.0 %
CRC копии 596A722F
Копирование... OK

Ошибок не произошло


AccurateRip: сводка

Трек 1 нет в базе данных
Трек 2 нет в базе данных
Трек 3 нет в базе данных
Трек 4 нет в базе данных
Трек 5 нет в базе данных
Трек 6 нет в базе данных
Трек 7 нет в базе данных
Трек 8 нет в базе данных
Трек 9 нет в базе данных

Ни одного трека нет в базе AccurateRip
Конец отчёта


Код:

 :clown:
Arrow MySpace
avatar
pars

Сообщения : 216
Дата регистрации : 2009-05-05
Возраст : 55
Откуда : Odessa,Ukraine

Вернуться к началу Перейти вниз

Re: Fission Trip(Dallas, L.A.,Nashville USA & London UK)

Сообщение автор ????? в Ср Окт 06, 2010 1:26 am

Thanks
avatar
?????
Гость


Вернуться к началу Перейти вниз

Вернуться к началу


 
Права доступа к этому форуму:
Вы не можете отвечать на сообщения