Coto En Pel - Holocaust - 1978(1991)

Перейти вниз

Coto En Pel - Holocaust - 1978(1991)

Сообщение автор kelia99 в Ср Авг 11, 2010 7:05 pm

Coto En Pel - Holocaust - 1978(1991)



USA (The Laser's Edge LE-1006)

A short-lived band with a noticeable King Crimson influence, COTO EN PEL were comprised of a quartet of skilled Spanish musicians who produced the lone album "Holocaust". The band's music is characterized by long, languid instrumental works with understated Catalan vocals and mild crescendos. The music is characterized by heavy use of keyboards, particularly mellotron, and lazy guitar arpeggios spread across lengthy tracks.

The band disappeared quietly at the end of the 1970s. Little has been written of the band, although drummer Vicent Cortina did go on to contribute to a number of Mediterranean-inflected bands including the jazz/fusion project SON MEDITERRANEO and most recently as a member of the folk group AL TALL. Keyboard and lead vocalist Pep Llopis has composed or produced a number of award-winning Spanish contemporary dance works and remains active in the Spanish music scene.

COTO EN PEL deserves a place in progressive music history for their epic-length if modest compositions, and for their symphonic and moody styling.

Bob Moore (ClemofNazareth)


Year: 1978(1991)
Origin: Spain
Genre: Symphonic Prog
Quality: (FLAC,cue,Log, cover,3% Recovery record)
Size: 209 mb

USA (The Laser's Edge LE-1006)

Track List:

1. Aura De Sons
2. Lamentacions
3. Holocaust - Part 1
4. Holocaust - Part 2

Total Time: 37:30





Line-up / Musicians :

-Pep Llopis / keyboards, vocals
-Carles Pico / guitars
-Vicent Cortina / drums
-Paco Cintero / bass, cornet, vocals

Releases information
LP Laser's Edge

Log EAC:
Exact Audio Copy V0.99 prebeta 5 from 4. May 2009

Отчёт EAC об извлечении, выполненном 10. августа 2010, 23:20

Cotу-En-Pиl / Holocaust

Дисковод: HL-DT-STDVDRAM GSA-H66N Adapter: 3 ID: 0

Режим чтения : Достоверность
Использование точного потока : Да
Отключение кэша аудио : Да
Использование указателей C2 : Нет

Коррекция смещения при чтении : 667
Способность читать области Lead-in и Lead-out : Нет
Заполнение пропущенных сэмплов тишиной : Да
Удаление блоков с тишиной в начале и конце : Нет
При вычислениях CRC использовались нулевые сэмплы : Да
Интерфейс : Встроенный Win32-интерфейс для Win NT/2000

Выходной формат : Внутренние WAV-операции
Формат сэмплов : 44.100 Гц; 16 бит; стерео


TOC извлечённого CD

Трек | Старт | Длительность | Начальный сектор | Конечный сектор
---------------------------------------------------------------------
1 | 0:00.00 | 13:40.00 | 0 | 61499
2 | 13:40.00 | 4:44.51 | 61500 | 82850
3 | 18:24.51 | 10:44.72 | 82851 | 131222
4 | 29:09.48 | 8:20.59 | 131223 | 168781


Характеристики диапазона извлечения и сообщения об ошибках

Выбранный диапазон

Имя файла E:\Coto En Pel - Holocaust 1978(1991)\Cotу-En-Pиl - Holocaust.wav

Пиковый уровень 69.5 %
Качество диапазона 99.9 %
CRC копии 260D4DE1
Копирование... OK

Ошибок не произошло


AccurateRip: сводка

Трек 1 нет в базе данных
Трек 2 нет в базе данных
Трек 3 нет в базе данных
Трек 4 нет в базе данных

Ни одного трека нет в базе AccurateRip

Конец отчёта


Последний раз редактировалось: kelia99 (Пт Сен 03, 2010 5:09 pm), всего редактировалось 1 раз(а)
kelia99
kelia99

Сообщения : 1065
Дата регистрации : 2009-05-06
Возраст : 57
Откуда : Украина,Запорожская обл.

http://in-rock-lossless.moole.ru/

Вернуться к началу Перейти вниз

Re: Coto En Pel - Holocaust - 1978(1991)

Сообщение автор tower в Чт Авг 12, 2010 12:21 am

Спасибо! Люблю испанцев, всегда неординарны.
tower
tower

Сообщения : 549
Дата регистрации : 2009-11-03
Возраст : 61
Откуда : Питер

Вернуться к началу Перейти вниз

Вернуться к началу


 
Права доступа к этому форуму:
Вы не можете отвечать на сообщения