" Spock's Beard "(USA) - Symphonic Prog

Страница 3 из 3 Предыдущий  1, 2, 3

Перейти вниз

Re: " Spock's Beard "(USA) - Symphonic Prog

Сообщение автор sole-survivor в Пн Июн 14, 2010 8:01 pm

tower пишет:в эти выходные приобрел пиратку (уж больно хотелось послушать!) этого диска с блеклой полиграфией. Проверил - пережатая из Мр3 запись. Пришлось с'ездить обратно и сделать физическое замечание продавцу. Так что теперь нужно быть аккуратным при скачивании из сети - а вдруг рип с такого-же диска.

Вот гады!!! Неужели, опять началось.... Спасибо за предупреждение. Действительно, нужно теперь быть повнимательней к выкладываемому рипу этого альбома. Даже наличие лога не спасёт.

_________________


Когда при мне говорят "Все будет хорошо", Я не знаю, что они имеют в виду.
(с) Б.Г. "Зимняя Роза"
avatar
sole-survivor
Бургомистр
Бургомистр

Сообщения : 801
Дата регистрации : 2009-05-05
Возраст : 53
Откуда : Moscow, Russia

http://www.musicalbox.ru/forum/

Вернуться к началу Перейти вниз

Re: " Spock's Beard "(USA) - Symphonic Prog

Сообщение автор ????? в Пн Июн 14, 2010 9:44 pm

sole-survivor пишет:У меня всё с куями и логами.
Но факт остаётся фактом - в архиве набор голых треков. Smile

sole-survivor пишет:физическое замечание продавцу
avatar
?????
Гость


Вернуться к началу Перейти вниз

Re: " Spock's Beard "(USA) - Symphonic Prog

Сообщение автор sole-survivor в Пн Июн 14, 2010 10:43 pm

Crescendo пишет:
sole-survivor пишет:У меня всё с куями и логами.
Но факт остаётся фактом - в архиве набор голых треков. Smile

Факт, к сожалению, проверить невозможно. Мои ссылки на альбом 2006 года давно мертвы.
Могу перезалить полностью, если есть необходимость. Но, тем не менее, мне с трудом верится, что я выложил голые флаки и при этом указал, что в комплекте всё есть.

Вот мои лог:
Код:
Exact Audio Copy V0.99 prebeta 4 from 23. January 2008

EAC extraction logfile from 23. September 2009, 22:50

Spock's Beard / Spock's Beard

Used drive  : _NEC    CD-RW NR-9500B  Adapter: 0  ID: 1

Read mode              : Secure
Utilize accurate stream : Yes
Defeat audio cache      : Yes
Make use of C2 pointers : No

Read offset correction                      : 145
Overread into Lead-In and Lead-Out          : No
Fill up missing offset samples with silence : Yes
Delete leading and trailing silent blocks  : No
Null samples used in CRC calculations      : Yes
Used interface                              : Installed external ASPI interface
Gap handling                                : Not detected, thus appended to previous track

Used output format              : User Defined Encoder
Selected bitrate                : 1024 kBit/s
Quality                        : High
Add ID3 tag                    : Yes
Command line compressor        : C:\Program Files\Flac\flac.exe
Additional command line options : -6 -V -T "ARTIST=%a" -T "TITLE=%t" -T "ALBUM=%g" -T "DATE=%y" -T "TRACKNUMBER=%n" -T "GENRE=%m" -T "COMMENT=%e" %s -o %d
Use compression offset          : 6


TOC of the extracted CD

    Track |  Start  |  Length  | Start sector | End sector
    ---------------------------------------------------------
        1  |  0:00.00 |  7:45.34 |        0    |    34908 
        2  |  7:45.34 |  6:33.53 |    34909    |    64436 
        3  | 14:19.12 |  2:51.00 |    64437    |    77261 
        4  | 17:10.12 |  4:45.33 |    77262    |    98669 
        5  | 21:55.45 | 11:46.35 |    98670    |  151654 
        6  | 33:42.05 |  4:31.38 |    151655    |  172017 
        7  | 38:13.43 |  5:47.30 |    172018    |  198072 
        8  | 44:00.73 |  5:09.71 |    198073    |  221318 
        9  | 49:10.69 |  5:01.60 |    221319    |  243953 
      10  | 54:12.54 |  4:44.12 |    243954    |  265265 
      11  | 58:56.66 |  3:28.24 |    265266    |  280889 
      12  | 62:25.15 |  3:15.07 |    280890    |  295521 
      13  | 65:40.22 |  5:22.70 |    295522    |  319741 
      14  | 71:03.17 |  6:08.03 |    319742    |  347344 


Track  1

    Filename N:\EAC\sole-survivor\Spock's Beard\2006 - Spock's Beard\01-On A Perfect Day.wav

    Peak level 100.0 %
    Track quality 100.0 %
    Copy CRC A5E5FD40
    Accurately ripped (confidence 2)  [F9DEF69C]
    Copy OK

Track  2

    Filename N:\EAC\sole-survivor\Spock's Beard\2006 - Spock's Beard\02-Skeletons At The Feast.wav

    Peak level 100.0 %
    Track quality 100.0 %
    Copy CRC 2CC63A19
    Cannot be verified as accurate (confidence 42)  [4F25AC6F], AccurateRip returned [98194BAF]
    Copy OK

Track  3

    Filename N:\EAC\sole-survivor\Spock's Beard\2006 - Spock's Beard\03-Is This Love.wav

    Peak level 100.0 %
    Track quality 99.9 %
    Copy CRC 309A27FB
    Accurately ripped (confidence 2)  [2EBBC8C7]
    Copy OK

Track  4

    Filename N:\EAC\sole-survivor\Spock's Beard\2006 - Spock's Beard\04-All That's Left.wav

    Peak level 100.0 %
    Track quality 100.0 %
    Copy CRC 1189FDD3
    Accurately ripped (confidence 2)  [A98C7CFB]
    Copy OK

Track  5

    Filename N:\EAC\sole-survivor\Spock's Beard\2006 - Spock's Beard\05-With Your Kiss.wav

    Peak level 100.0 %
    Track quality 100.0 %
    Copy CRC F6166192
    Accurately ripped (confidence 2)  [83365704]
    Copy OK

Track  6

    Filename N:\EAC\sole-survivor\Spock's Beard\2006 - Spock's Beard\06-Sometimes They Stay, Sometimes They Go.wav

    Peak level 100.0 %
    Track quality 100.0 %
    Copy CRC C6DD37E8
    Accurately ripped (confidence 2)  [A3BAD0E1]
    Copy OK

Track  7

    Filename N:\EAC\sole-survivor\Spock's Beard\2006 - Spock's Beard\07-The Slow Crash Landing Man.wav

    Peak level 100.0 %
    Track quality 100.0 %
    Copy CRC D625B992
    Accurately ripped (confidence 2)  [CABB6979]
    Copy OK

Track  8

    Filename N:\EAC\sole-survivor\Spock's Beard\2006 - Spock's Beard\08-Wherever You Stand.wav

    Peak level 100.0 %
    Track quality 100.0 %
    Copy CRC 74ADFBBA
    Accurately ripped (confidence 2)  [E6C5D09F]
    Copy OK

Track  9

    Filename N:\EAC\sole-survivor\Spock's Beard\2006 - Spock's Beard\09-Hereafter.wav

    Peak level 88.2 %
    Track quality 100.0 %
    Copy CRC 3D9E69E9
    Accurately ripped (confidence 2)  [C62ED66F]
    Copy OK

Track 10

    Filename N:\EAC\sole-survivor\Spock's Beard\2006 - Spock's Beard\10-As Far As The Mind Can See- Part 1 - Dreaming In The Age Of Answers.wav

    Peak level 99.6 %
    Track quality 100.0 %
    Copy CRC 8F5489C7
    Accurately ripped (confidence 2)  [D4573EC6]
    Copy OK

Track 11

    Filename N:\EAC\sole-survivor\Spock's Beard\2006 - Spock's Beard\11-As Far As The Mind Can See- Part 2 - Here's A Man.wav

    Peak level 100.0 %
    Track quality 100.0 %
    Copy CRC 7F9A236D
    Accurately ripped (confidence 2)  [27780E29]
    Copy OK

Track 12

    Filename N:\EAC\sole-survivor\Spock's Beard\2006 - Spock's Beard\12-As Far As The Mind Can See- Part 3 - They Know We Know.wav

    Peak level 100.0 %
    Track quality 100.0 %
    Copy CRC 7E2A0FAE
    Accurately ripped (confidence 2)  [5A9354D4]
    Copy OK

Track 13

    Filename N:\EAC\sole-survivor\Spock's Beard\2006 - Spock's Beard\13-As Far As The Mind Can See- Part 4 - Stream Of Unconsciousness.wav

    Peak level 100.0 %
    Track quality 100.0 %
    Copy CRC 6C145307
    Accurately ripped (confidence 2)  [4837FCD7]
    Copy OK

Track 14

    Filename N:\EAC\sole-survivor\Spock's Beard\2006 - Spock's Beard\14-Rearranged.wav

    Peak level 100.0 %
    Track quality 100.0 %
    Copy CRC CB1A21F8
    Accurately ripped (confidence 2)  [415839CF]
    Copy OK


13 track(s) accurately ripped
 1 track(s) could not be verified as accurate

Some tracks could not be verified as accurate

No errors occurred

End of status report

и куй:
Код:
REM GENRE "Progressive Rock"
REM DATE 2006
REM DISCID C712170E
REM COMMENT "ExactAudioCopy v0.99pb4"
PERFORMER "Spock's Beard"
TITLE "Spock's Beard"
FILE "01-On A Perfect Day.wav" WAVE
  TRACK 01 AUDIO
    TITLE "On A Perfect Day"
    PERFORMER "Spock's Beard"
    INDEX 01 00:00:00
FILE "02-Skeletons At The Feast.wav" WAVE
  TRACK 02 AUDIO
    TITLE "Skeletons At The Feast"
    PERFORMER "Spock's Beard"
    INDEX 01 00:00:00
FILE "03-Is This Love.wav" WAVE
  TRACK 03 AUDIO
    TITLE "Is This Love"
    PERFORMER "Spock's Beard"
    INDEX 01 00:00:00
FILE "04-All That's Left.wav" WAVE
  TRACK 04 AUDIO
    TITLE "All That's Left"
    PERFORMER "Spock's Beard"
    INDEX 01 00:00:00
FILE "05-With Your Kiss.wav" WAVE
  TRACK 05 AUDIO
    TITLE "With Your Kiss"
    PERFORMER "Spock's Beard"
    INDEX 01 00:00:00
FILE "06-Sometimes They Stay, Sometimes They Go.wav" WAVE
  TRACK 06 AUDIO
    TITLE "Sometimes They Stay, Sometimes They Go"
    PERFORMER "Spock's Beard"
    INDEX 01 00:00:00
FILE "07-The Slow Crash Landing Man.wav" WAVE
  TRACK 07 AUDIO
    TITLE "The Slow Crash Landing Man"
    PERFORMER "Spock's Beard"
    INDEX 01 00:00:00
FILE "08-Wherever You Stand.wav" WAVE
  TRACK 08 AUDIO
    TITLE "Wherever You Stand"
    PERFORMER "Spock's Beard"
    INDEX 01 00:00:00
FILE "09-Hereafter.wav" WAVE
  TRACK 09 AUDIO
    TITLE "Hereafter"
    PERFORMER "Spock's Beard"
    INDEX 01 00:00:00
FILE "10-As Far As The Mind Can See- Part 1 - Dreaming In The Age Of Answers.wav" WAVE
  TRACK 10 AUDIO
    TITLE "As Far As The Mind Can See: Part 1 - Dreaming In The Age Of Answers"
    PERFORMER "Spock's Beard"
    INDEX 01 00:00:00
FILE "11-As Far As The Mind Can See- Part 2 - Here's A Man.wav" WAVE
  TRACK 11 AUDIO
    TITLE "As Far As The Mind Can See: Part 2 - Here's A Man"
    PERFORMER "Spock's Beard"
    INDEX 01 00:00:00
FILE "12-As Far As The Mind Can See- Part 3 - They Know We Know.wav" WAVE
  TRACK 12 AUDIO
    TITLE "As Far As The Mind Can See: Part 3 - They Know We Know"
    PERFORMER "Spock's Beard"
    INDEX 01 00:00:00
FILE "13-As Far As The Mind Can See- Part 4 - Stream Of Unconsciousness.wav" WAVE
  TRACK 13 AUDIO
    TITLE "As Far As The Mind Can See: Part 4 - Stream Of Unconsciousness"
    PERFORMER "Spock's Beard"
    INDEX 01 00:00:00
FILE "14-Rearranged.wav" WAVE
  TRACK 14 AUDIO
    TITLE "Rearranged"
    PERFORMER "Spock's Beard"
    INDEX 01 00:00:00

_________________


Когда при мне говорят "Все будет хорошо", Я не знаю, что они имеют в виду.
(с) Б.Г. "Зимняя Роза"
avatar
sole-survivor
Бургомистр
Бургомистр

Сообщения : 801
Дата регистрации : 2009-05-05
Возраст : 53
Откуда : Moscow, Russia

http://www.musicalbox.ru/forum/

Вернуться к началу Перейти вниз

Re: " Spock's Beard "(USA) - Symphonic Prog

Сообщение автор kelia99 в Пн Июн 14, 2010 10:56 pm

[quote="sole-survivor"]
Crescendo пишет:
sole-survivor пишет:У меня всё с куями и логами.
Но факт остаётся фактом - в архиве набор голых треков. Smile

Не может этого быть. Я качал этот диск у Вадима,с куем и логом.Записывал себе на болванку,т.к. у меня его не было. Но вот ... ничего не сохранилось, у меня с полугодовалыми архивами(в ноябре прошлого года) навернулся жёсткий диск, потеряно безвозвратно много... Sad
avatar
kelia99

Сообщения : 1065
Дата регистрации : 2009-05-06
Возраст : 56
Откуда : Украина,Запорожская обл.

http://in-rock-lossless.moole.ru/

Вернуться к началу Перейти вниз

Re: " Spock's Beard "(USA) - Symphonic Prog

Сообщение автор ????? в Пн Июн 14, 2010 11:38 pm

Возможно, что и моя оплошность.
Сегодня перекачаю и проверю.
avatar
?????
Гость


Вернуться к началу Перейти вниз

Re: " Spock's Beard "(USA) - Symphonic Prog

Сообщение автор sole-survivor в Вт Июн 15, 2010 12:12 am

Уточнил. Всё там в комплекте было.
Согласно каментам к публикации на лодке, меня благодарил Miguk именно за рип с логом. Smile

_________________


Когда при мне говорят "Все будет хорошо", Я не знаю, что они имеют в виду.
(с) Б.Г. "Зимняя Роза"
avatar
sole-survivor
Бургомистр
Бургомистр

Сообщения : 801
Дата регистрации : 2009-05-05
Возраст : 53
Откуда : Moscow, Russia

http://www.musicalbox.ru/forum/

Вернуться к началу Перейти вниз

Re: " Spock's Beard "(USA) - Symphonic Prog

Сообщение автор ????? в Вт Июн 15, 2010 7:46 pm

Да, ребят, я лоханулся. Laughing
Ссылки были с АваксХоума, но я почему-то был уверен, что скопировал их отсюда. Smile
Пардон. Smile
avatar
?????
Гость


Вернуться к началу Перейти вниз

Re: " Spock's Beard "(USA) - Symphonic Prog

Сообщение автор ????? в Вт Июн 15, 2010 8:22 pm

А Ваши, тёзка, ссылки на одноимённик как раз-таки и подохли...
avatar
?????
Гость


Вернуться к началу Перейти вниз

Re: " Spock's Beard "(USA) - Symphonic Prog

Сообщение автор sole-survivor в Вт Июн 15, 2010 9:52 pm

Crescendo пишет:А Ваши, тёзка, ссылки на одноимённик как раз-таки и подохли...

О чём я и писал выше. Very Happy

_________________


Когда при мне говорят "Все будет хорошо", Я не знаю, что они имеют в виду.
(с) Б.Г. "Зимняя Роза"
avatar
sole-survivor
Бургомистр
Бургомистр

Сообщения : 801
Дата регистрации : 2009-05-05
Возраст : 53
Откуда : Moscow, Russia

http://www.musicalbox.ru/forum/

Вернуться к началу Перейти вниз

Re: " Spock's Beard "(USA) - Symphonic Prog

Сообщение автор ????? в Вт Июн 15, 2010 11:03 pm

Стяну с трекера. Smile
avatar
?????
Гость


Вернуться к началу Перейти вниз

Re: " Spock's Beard "(USA) - Symphonic Prog

Сообщение автор ????? в Чт Июн 17, 2010 5:24 pm

Oh Excellent! Big Thank You Kelia
avatar
?????
Гость


Вернуться к началу Перейти вниз

Re: " Spock's Beard "(USA) - Symphonic Prog

Сообщение автор ????? в Вт Июн 29, 2010 5:39 am

sole-survivor, тёзка, а я таки нашёл этот же самый Ваш релиз - на Отдам-с-файле. Так что так или иначе будет у меня Ваш рип одноимённика. Very Happy
avatar
?????
Гость


Вернуться к началу Перейти вниз

Re: " Spock's Beard "(USA) - Symphonic Prog

Сообщение автор Johnik в Вт Июн 29, 2010 5:51 am

Вадик,
дай нормальные ссылки на Spock's Beard - Octane (Special Edition Bonus CD) (2005)

В дополнение к однодисковому изданию, выложенному kelia99.
и Spock's Beard - The Beard Is Out There - Live (1998)
опять я лоханулся и пропустил эти диски. Со сцылками не могу никак разобраться, или они умерли?
avatar
Johnik

Сообщения : 752
Дата регистрации : 2009-07-30
Возраст : 59
Откуда : г. Сумы, Украина

http://genesisomania.narod.ru

Вернуться к началу Перейти вниз

Re: " Spock's Beard "(USA) - Symphonic Prog

Сообщение автор pr0gger в Вт Июн 29, 2010 10:55 am

Johnik пишет:Со сцылками не могу никак разобраться, или они умерли?
http://1stmelomonkeys.yoo7.com/forum-f3/tema-t3123.htm

_________________
Non Est Ars Quae ad Effectum Casus Venit...

For the wide-eyed there is wonder everywhere...
avatar
pr0gger
founder

Сообщения : 2191
Дата регистрации : 2009-05-04
Возраст : 53
Откуда : Москва

http://1stmelomonkeys.yoo7.com

Вернуться к началу Перейти вниз

Re: " Spock's Beard "(USA) - Symphonic Prog

Сообщение автор kelia99 в Ср Авг 04, 2010 12:43 am

Spock's Beard - "X" (2010)



Year: 2010
Origin: USA
Genre: Progressive rock,Symphonic Prog
Quality: (FLAC,cue,Log, cover,3% Recovery record)
Size: 594 mb

Track List:

1. Edge of the In-Between (10:30)
2. The Emperor's Clothes (5:52)
3. Kamikaze (3:50)
4. From the Darkness (16:36)
-- a. The Darkness
-- b. Chance Meeting
-- c. On My Own
-- d. Start Over Again
5. The Quiet House (9:03)
6. Their Names Escape Me (8:57)
7. The Man Behind the Curtain (7:46)
8. Jaws of Heaven (16:22)
-- a. Homesick for the Ashes
-- b. Words of War
-- c. Deep in the Wondering
-- d. Whole Again

Total Time 79:46



Line-up / Musicians :

- Nick D'Virgilio / drums, vocals, additional guitars
- Alan Morse / guitars, vocals
- Ryo Okumoto / keyboards
- Dave Meros / bass, vocals, additional keyboards





Последний раз редактировалось: kelia99 (Пт Сен 03, 2010 5:08 pm), всего редактировалось 3 раз(а)
avatar
kelia99

Сообщения : 1065
Дата регистрации : 2009-05-06
Возраст : 56
Откуда : Украина,Запорожская обл.

http://in-rock-lossless.moole.ru/

Вернуться к началу Перейти вниз

Re: " Spock's Beard "(USA) - Symphonic Prog

Сообщение автор BeoKuzma в Ср Авг 04, 2010 1:01 am

Саша, значит прям с отпуска и сразу Spock's Beard 2010?!) - здОрово! и
Большое спасибо! - Уже качаю с родной рапиды!)
avatar
BeoKuzma

Сообщения : 460
Дата регистрации : 2009-05-06
Откуда : Алматы, Казахстан

Вернуться к началу Перейти вниз

Re: " Spock's Beard "(USA) - Symphonic Prog

Сообщение автор Johnik в Ср Авг 04, 2010 1:02 am

а мне его позавчера подогнали.
многим не понравился. а по мне так непоганый
спасибо

Уже качаю с родной рапиды!)
ну ну Very Happy
avatar
Johnik

Сообщения : 752
Дата регистрации : 2009-07-30
Возраст : 59
Откуда : г. Сумы, Украина

http://genesisomania.narod.ru

Вернуться к началу Перейти вниз

Re: " Spock's Beard "(USA) - Symphonic Prog

Сообщение автор kelia99 в Ср Авг 04, 2010 1:06 am

Johnik пишет:а мне его позавчера подогнали.
многим не понравился. а по мне так непоганый спасибо
Если честно, я не в восторге, ожидал большего. Хотя альбом неплохой.
avatar
kelia99

Сообщения : 1065
Дата регистрации : 2009-05-06
Возраст : 56
Откуда : Украина,Запорожская обл.

http://in-rock-lossless.moole.ru/

Вернуться к началу Перейти вниз

Re: " Spock's Beard "(USA) - Symphonic Prog

Сообщение автор ????? в Ср Авг 04, 2010 3:09 pm

Спасибо, мнения об альбоме разные, надо самому послушать
avatar
?????
Гость


Вернуться к началу Перейти вниз

Re: " Spock's Beard "(USA) - Symphonic Prog

Сообщение автор ????? в Ср Авг 04, 2010 8:20 pm

Thanks a lot
avatar
?????
Гость


Вернуться к началу Перейти вниз

Re: " Spock's Beard "(USA) - Symphonic Prog

Сообщение автор ????? в Чт Авг 05, 2010 12:22 am

kelia99, спасибо.
avatar
?????
Гость


Вернуться к началу Перейти вниз

Re: " Spock's Beard "(USA) - Symphonic Prog

Сообщение автор ab3000 в Чт Авг 05, 2010 4:34 pm

Большое спасибо за новый альбом SB!
avatar
ab3000

Сообщения : 86
Дата регистрации : 2009-09-11
Откуда : Москва

Вернуться к началу Перейти вниз

Re: " Spock's Beard "(USA) - Symphonic Prog

Сообщение автор ????? в Чт Авг 12, 2010 9:13 am

Thank you very much for "X", kelia.

Nice shot!
avatar
?????
Гость


Вернуться к началу Перейти вниз

Re: " Spock's Beard "(USA) - Symphonic Prog

Сообщение автор ????? в Чт Авг 12, 2010 3:39 pm

Большое спасибо!А ссылки на Spock's Beard - "X" увидеть можно?
avatar
?????
Гость


Вернуться к началу Перейти вниз

Re: " Spock's Beard "(USA) - Symphonic Prog

Сообщение автор kelia99 в Вт Окт 05, 2010 3:08 pm

Spock's Beard - From The Vault (1998)



From the Vault is a compilation album of home demos and unreleased tracks

Origin: USA
Genre: Progressive rock
Quality: (FLAC,cue,Log, cover,3% Recovery record)
Size: 465 mb
Uploated to: Multiupload
Source: My CD-R collection

Track List:

01. Stratus
02. Into The Fire
03. Fire / Waste Away
04. The Light
05. Excerpt From The Doorway
06. The Doorway
07. Waste Away
08. Walking On The Wind
09. Go The Way You Go
Total Time:




Line-up / Musicians :

Neal Morse - lead vocals, acoustic guitar, piano, synth
Alan Morse - electric guitars, backing vocals
Nick D'Virgilio - drums, percussion, backing vocals
Dave Meros - bass guitars, backing vocals
Ryo Okumoto - hammond organ, mellotron
avatar
kelia99

Сообщения : 1065
Дата регистрации : 2009-05-06
Возраст : 56
Откуда : Украина,Запорожская обл.

http://in-rock-lossless.moole.ru/

Вернуться к началу Перейти вниз

Re: " Spock's Beard "(USA) - Symphonic Prog

Сообщение автор Спонсируемый контент


Спонсируемый контент


Вернуться к началу Перейти вниз

Страница 3 из 3 Предыдущий  1, 2, 3

Вернуться к началу

- Похожие темы

 
Права доступа к этому форуму:
Вы не можете отвечать на сообщения